The Humanity Bureau (2017)

Posted By: Tavaz
SD / BDRip IMDb
The Humanity Bureau (2017)

The Humanity Bureau (2017)
BDRip | MKV | 720x300 | German | H264 @ 626 kbps | AC-3 @ 384 kbps | 1 h 34 min | 683 MiB
Genre: Action, Science Fiction

Da große Bereiche der USA durch die Folgen der globalen Erwärmung unbewohnbar geworden sind, müssen Teile der Bevölkerung zwangsumgesiedelt werden. Um diese gewaltige logistische Herausforderung zu bewältigen, hat die Regierung das „Humanity Bureau“ ins Leben gerufen, in dem objektiv und rücksichtslos entschieden werden soll, wer dem Allgemeinwohl am wenigsten nützt. Diese ausgewählten Menschen müssen dann in die Kolonie „New Eden“ umsiedeln, wo all diejenigen ihr Dasein fristen, die als entbehrlich für die Gesellschaft betrachtet werden. Auch die alleinerziehende Mutter Rachel Weller (Sarah Lind) und ihr kleiner Sohn Lucas (Jakob Davies) sollen nach „New Eden“ abgeschoben werden, doch damit will sich Rachel nicht abfinden und so protestiert sie bei ihrem Sachbearbeiter Noah Kross (Nicolas Cage).

xf-humanitybureau.mkv (683.2 MB)
xf-humanitybureau(1).sub (2.5 MB)
xf-humanitybureau.idx (36.3 KB)
xf-humanitybureau(1).idx (36.3 KB)
xf-humanitybureau.sub (2.5 MB)



General
Unique ID : 220539825780646515712084161772056049631 (0xA5EA6CE9A445308F8CE9AA555F1177DF)
Complete name : ./The.Humanity.Bureau.German.2017.AC3.BDRiP.x264-XF/xf-humanitybureau.mkv
Format : Matroska
Format version : Version 4 / Version 2
File size : 683 MiB
Duration : 1 h 34 min
Overall bit rate : 1 012 kb/s
Encoded date : UTC 2018-04-14 11:09:54
Writing application : mkvmerge v14.0.0 ('Flow') 64bit
Writing library : libebml v1.3.4 + libmatroska v1.4.5

Video
ID : 1
Format : AVC
Format/Info : Advanced Video Codec
Format profile : [email protected]
Format settings : CABAC / 5 Ref Frames
Format settings, CABAC : Yes
Format settings, RefFrames : 5 frames
Codec ID : V_MPEG4/ISO/AVC
Duration : 1 h 34 min
Bit rate : 626 kb/s
Width : 720 pixels
Height : 300 pixels
Display aspect ratio : 2.40:1
Frame rate mode : Constant
Frame rate : 23.976 (23976/1000) FPS
Original frame rate : 23.976 (24000/1001) FPS
Color space : YUV
Chroma subsampling : 4:2:0
Bit depth : 8 bits
Scan type : Progressive
Bits/(Pixel*Frame) : 0.121
Stream size : 423 MiB (62%)
Writing library : x264 core 155 r2901 7d0ff22
Encoding settings : cabac=1 / ref=5 / deblock=1:-1:-1 / analyse=0x3:0x133 / me=umh / subme=7 / psy=1 / psy_rd=1.00:0.15 / mixed_ref=1 / me_range=16 / chroma_me=1 / trellis=1 / 8x8dct=1 / cqm=0 / deadzone=21,11 / fast_pskip=0 / chroma_qp_offset=-3 / threads=16 / lookahead_threads=2 / sliced_threads=0 / nr=0 / decimate=1 / interlaced=0 / bluray_compat=0 / constrained_intra=0 / bframes=3 / b_pyramid=2 / b_adapt=1 / b_bias=0 / direct=1 / weightb=1 / open_gop=0 / weightp=2 / keyint=250 / keyint_min=23 / scenecut=40 / intra_refresh=0 / rc_lookahead=40 / rc=crf / mbtree=1 / crf=19.0 / qcomp=0.60 / qpmin=0 / qpmax=69 / qpstep=4 / ip_ratio=1.40 / aq=1:1.00
Default : Yes
Forced : No

Audio
ID : 2
Format : AC-3
Format/Info : Audio Coding 3
Format settings, Endianness : Big
Codec ID : A_AC3
Duration : 1 h 34 min
Bit rate mode : Constant
Bit rate : 384 kb/s
Channel(s) : 6 channels
Channel positions : Front: L C R, Side: L R, LFE
Sampling rate : 48.0 kHz
Frame rate : 31.250 FPS (1536 SPF)
Bit depth : 16 bits
Compression mode : Lossy
Stream size : 259 MiB (38%)
Language : German
Service kind : Complete Main
Default : Yes
Forced : No

Menu
00:00:00.000 : en:00:00:00.000
00:07:24.819 : en:00:07:24.819
00:15:43.151 : en:00:15:43.151
00:22:21.924 : en:00:22:21.924
00:30:05.595 : en:00:30:05.595
00:38:40.693 : en:00:38:40.693
00:46:00.007 : en:00:46:00.007
00:52:30.606 : en:00:52:30.606
00:58:32.092 : en:00:58:32.092
01:08:07.625 : en:01:08:07.625
01:15:44.248 : en:01:15:44.248
01:26:00.280 : en:01:26:00.280





The Humanity Bureau (2017)


The Humanity Bureau (2017)


The Humanity Bureau (2017)


The Humanity Bureau (2017)


The Humanity Bureau (2017)