Harry Potter and the Order of the Phoenix (2007)

Posted By: Tavaz
1080p (FullHD) / BDRip IMDb
Harry Potter and the Order of the Phoenix (2007)

Harry Potter and the Order of the Phoenix (2007)
BDRip | MKV | 1920x1080 | English | H264 @ 5760 kbps | AC-3 @ 448 kbps | 2 h 18 min | 5.99 GiB
Subtitles: English
Genre: Adventure, Fantasy, Mystery, Family

Returning for his fifth year of study at Hogwarts, Harry is stunned to find that his warnings about the return of Lord Voldemort have been ignored. Left with no choice, Harry takes matters into his own hands, training a small group of students – dubbed 'Dumbledore's Army' – to defend themselves against the dark arts.

b5e48bdcfc5d43ec903c40a08462e030.mkv (6.0 GB)



General
Unique ID : 309375213887285774870764496261827615930 (0xE8BF7FB47B290060B180198800F15CBA)
Complete name : ./b5e48bdcfc5d43ec903c40a08462e030.mkv
Format : Matroska
Format version : Version 4 / Version 2
File size : 5.99 GiB
Duration : 2 h 18 min
Overall bit rate : 6 199 kb/s
Movie name : Harry.Potter.and.the.Order.of.the.Phoenix.2007.1080p.BluRay.x264-nikt0
Encoded date : UTC 2018-04-13 13:05:39 / UTC 2018-04-07T05:55:08Z
Writing application : mkvmerge v8.8.0 ('Wind at my back') 64bit
Writing library : libebml v1.3.3 + libmatroska v1.4.4 / Lavf57.7.2

Video
ID : 1
Format : AVC
Format/Info : Advanced Video Codec
Format profile : [email protected]
Format settings : CABAC / 4 Ref Frames
Format settings, CABAC : Yes
Format settings, RefFrames : 4 frames
Codec ID : V_MPEG4/ISO/AVC
Duration : 2 h 18 min
Bit rate : 5 760 kb/s
Width : 1 920 pixels
Height : 1 080 pixels
Display aspect ratio : 16:9
Frame rate mode : Constant
Frame rate : 23.976 (24000/1001) FPS
Color space : YUV
Chroma subsampling : 4:2:0
Bit depth : 8 bits
Scan type : Progressive
Bits/(Pixel*Frame) : 0.116
Stream size : 5.43 GiB (91%)
Writing library : x264 core 148 r2643 5c65704
Encoding settings : cabac=1 / ref=4 / deblock=1:-3:-3 / analyse=0x3:0x133 / me=umh / subme=9 / psy=1 / psy_rd=1.10:0.25 / mixed_ref=1 / me_range=32 / chroma_me=1 / trellis=2 / 8x8dct=1 / cqm=0 / deadzone=6,6 / fast_pskip=1 / chroma_qp_offset=-4 / threads=12 / lookahead_threads=1 / sliced_threads=0 / nr=0 / decimate=1 / interlaced=0 / bluray_compat=0 / constrained_intra=0 / bframes=6 / b_pyramid=2 / b_adapt=2 / b_bias=0 / direct=3 / weightb=1 / open_gop=0 / weightp=2 / keyint=240 / keyint_min=24 / scenecut=40 / intra_refresh=0 / rc_lookahead=40 / rc=2pass / mbtree=1 / bitrate=5760 / ratetol=1.0 / qcomp=0.60 / qpmin=0 / qpmax=69 / qpstep=4 / cplxblur=20.0 / qblur=0.5 / vbv_maxrate=20000 / vbv_bufsize=25000 / nal_hrd=none / filler=0 / ip_ratio=1.40 / aq=1:1.00
Language : English
Default : Yes
Forced : No
Color range : Limited
Color primaries : BT.709
Transfer characteristics : BT.709
Matrix coefficients : BT.709
Statistics Tags Issue : mkvmerge v8.8.0 ('Wind at my back') 64bit 2018-04-13 13:05:39 / mkvmerge v8.8.0 ('Wind at my back') 64bit 2018-04-13 13:05:39 / UTC 2018-04-07T05:55:08Z
FromStats_BitRate : 5749460
FromStats_Duration : 02:18:14.411000000
FromStats_FrameCount : 198867
FromStats_StreamSize : 5961048183

Audio
ID : 2
Format : AC-3
Format/Info : Audio Coding 3
Format settings, Endianness : Big
Codec ID : A_AC3
Duration : 2 h 18 min
Bit rate mode : Constant
Bit rate : 448 kb/s
Channel(s) : 6 channels
Channel positions : Front: L C R, Side: L R, LFE
Sampling rate : 48.0 kHz
Frame rate : 31.250 FPS (1536 SPF)
Bit depth : 16 bits
Compression mode : Lossy
Delay relative to video : -5 ms
Stream size : 443 MiB (7%)
Title : Surround
Language : English
Service kind : Complete Main
Default : Yes
Forced : No
Statistics Tags Issue : mkvmerge v8.8.0 ('Wind at my back') 64bit 2018-04-13 13:05:39 / mkvmerge v8.8.0 ('Wind at my back') 64bit 2018-04-13 13:05:39 / UTC 2018-04-07T05:55:08Z
FromStats_BitRate : 448000
FromStats_Duration : 02:18:14.432000000
FromStats_FrameCount : 259201
FromStats_StreamSize : 464488192

Text
ID : 3
Format : UTF-8
Codec ID : S_TEXT/UTF8
Codec ID/Info : UTF-8 Plain Text
Title : SDH
Language : English
Default : Yes
Forced : No
Statistics Tags Issue : mkvmerge v8.8.0 ('Wind at my back') 64bit 2018-04-13 13:05:39 / mkvmerge v8.8.0 ('Wind at my back') 64bit 2018-04-13 13:05:39 / UTC 2018-04-07T05:55:08Z
FromStats_BitRate : 53
FromStats_Duration : 02:17:18.438000000
FromStats_FrameCount : 1524
FromStats_StreamSize : 55311

Menu
00:00:00.000 : :Dudley Demented
00:04:50.957 : :The Advance Guard
00:10:16.783 : :Number 12, Grimmauld Place
00:15:19.919 : :The Order of the Phoenix
00:17:43.229 : :The Ministry of Magic
00:20:52.418 : :The Hearing
00:25:33.532 : :The Originals
00:28:07.352 : :Luna Lovegood
00:30:20.944 : :Preserve, Perfect and Prune
00:34:53.925 : :Professor Umbridge's Class
00:37:41.092 : :Detention with Dolores
00:41:48.506 : :Thestrals and Sympathy
00:44:57.528 : :The Hogwarts High Inquisitor
00:50:57.388 : :In the Hog's Head
00:56:37.394 : :Dumbledore's Army
01:03:28.638 : :Under the Mistletoe
01:07:39.055 : :Occlumency
01:11:16.105 : :House of Black
01:16:30.252 : :Hagrid's Tale
01:19:16.585 : :Unquiet Escape
01:25:30.959 : :Grawp
01:31:30.610 : :Snape's Worst Memory
01:34:49.809 : :O.W.L.S.
01:37:42.398 : :Out of the Fire
01:41:40.261 : :Fight and Flight
01:45:59.353 : :The Department of Mysteries
01:48:37.177 : :Beyond the Veil
01:52:40.921 : :Side By Side
01:57:30.710 : :Wizards Duel
02:03:33.239 : :The Lost Prophecy
02:05:50.710 : :A Way of Coming Back
02:08:26.866 : :End Credits





Harry Potter and the Order of the Phoenix (2007)


Harry Potter and the Order of the Phoenix (2007)


Harry Potter and the Order of the Phoenix (2007)


Harry Potter and the Order of the Phoenix (2007)


Harry Potter and the Order of the Phoenix (2007)