Harry Potter and the Goblet of Fire (2005)

Posted By: Tavaz
1080p (FullHD) / BDRip IMDb
Harry Potter and the Goblet of Fire (2005)

Harry Potter and the Goblet of Fire (2005)
BDRip | MKV | 1920x1080 | English | H264 @ 5760 kbps | AC-3 @ 448 kbps | 2 h 37 min | 6.81 GiB
Subtitles: English
Genre: Adventure, Fantasy, Family

Harry starts his fourth year at Hogwarts, competes in the treacherous Triwizard Tournament and faces the evil Lord Voldemort. Ron and Hermione help Harry manage the pressure – but Voldemort lurks, awaiting his chance to destroy Harry and all that he stands for.

8ecc9befefdd46b2aa9fdeafa1f44cad.mkv (6.8 GB)



General
Unique ID : 179739692429347220120650965157321203717 (0x87389B0795583977ED837B0B5EA96005)
Complete name : ./8ecc9befefdd46b2aa9fdeafa1f44cad.mkv
Format : Matroska
Format version : Version 4 / Version 2
File size : 6.81 GiB
Duration : 2 h 37 min
Overall bit rate : 6 208 kb/s
Movie name : Harry.Potter.and.the.Goblet.of.Fire.2005.1080p.BluRay.x264-nikt0
Encoded date : UTC 2018-04-13 13:07:48 / UTC 2018-04-06T19:32:41Z
Writing application : mkvmerge v8.8.0 ('Wind at my back') 64bit
Writing library : libebml v1.3.3 + libmatroska v1.4.4 / Lavf57.7.2

Video
ID : 1
Format : AVC
Format/Info : Advanced Video Codec
Format profile : [email protected]
Format settings : CABAC / 4 Ref Frames
Format settings, CABAC : Yes
Format settings, RefFrames : 4 frames
Codec ID : V_MPEG4/ISO/AVC
Duration : 2 h 37 min
Bit rate : 5 760 kb/s
Width : 1 920 pixels
Height : 1 080 pixels
Display aspect ratio : 16:9
Frame rate mode : Constant
Frame rate : 23.976 (24000/1001) FPS
Color space : YUV
Chroma subsampling : 4:2:0
Bit depth : 8 bits
Scan type : Progressive
Bits/(Pixel*Frame) : 0.116
Stream size : 6.19 GiB (91%)
Writing library : x264 core 148 r2643 5c65704
Encoding settings : cabac=1 / ref=4 / deblock=1:-3:-3 / analyse=0x3:0x133 / me=umh / subme=9 / psy=1 / psy_rd=1.10:0.25 / mixed_ref=1 / me_range=32 / chroma_me=1 / trellis=2 / 8x8dct=1 / cqm=0 / deadzone=6,6 / fast_pskip=1 / chroma_qp_offset=-4 / threads=12 / lookahead_threads=1 / sliced_threads=0 / nr=0 / decimate=1 / interlaced=0 / bluray_compat=0 / constrained_intra=0 / bframes=6 / b_pyramid=2 / b_adapt=2 / b_bias=0 / direct=3 / weightb=1 / open_gop=0 / weightp=2 / keyint=240 / keyint_min=24 / scenecut=40 / intra_refresh=0 / rc_lookahead=40 / rc=2pass / mbtree=1 / bitrate=5760 / ratetol=1.0 / qcomp=0.60 / qpmin=0 / qpmax=69 / qpstep=4 / cplxblur=20.0 / qblur=0.5 / vbv_maxrate=20000 / vbv_bufsize=25000 / nal_hrd=none / filler=0 / ip_ratio=1.40 / aq=1:1.00
Language : English
Default : Yes
Forced : No
Color range : Limited
Color primaries : BT.709
Transfer characteristics : BT.709
Matrix coefficients : BT.709
Statistics Tags Issue : mkvmerge v8.8.0 ('Wind at my back') 64bit 2018-04-13 13:07:48 / mkvmerge v8.8.0 ('Wind at my back') 64bit 2018-04-13 13:07:48 / UTC 2018-04-06T19:32:41Z
FromStats_BitRate : 5758344
FromStats_Duration : 02:37:05.458000000
FromStats_FrameCount : 225985
FromStats_StreamSize : 6784378880

Audio
ID : 2
Format : AC-3
Format/Info : Audio Coding 3
Format settings, Endianness : Big
Codec ID : A_AC3
Duration : 2 h 37 min
Bit rate mode : Constant
Bit rate : 448 kb/s
Channel(s) : 6 channels
Channel positions : Front: L C R, Side: L R, LFE
Sampling rate : 48.0 kHz
Frame rate : 31.250 FPS (1536 SPF)
Bit depth : 16 bits
Compression mode : Lossy
Delay relative to video : -5 ms
Stream size : 503 MiB (7%)
Title : Surround
Language : English
Service kind : Complete Main
Default : Yes
Forced : No
Statistics Tags Issue : mkvmerge v8.8.0 ('Wind at my back') 64bit 2018-04-13 13:07:48 / mkvmerge v8.8.0 ('Wind at my back') 64bit 2018-04-13 13:07:48 / UTC 2018-04-06T19:32:41Z
FromStats_BitRate : 448000
FromStats_Duration : 02:37:05.472000000
FromStats_FrameCount : 294546
FromStats_StreamSize : 527826432

Text
ID : 3
Format : UTF-8
Codec ID : S_TEXT/UTF8
Codec ID/Info : UTF-8 Plain Text
Title : SDH
Language : English
Default : Yes
Forced : No
Statistics Tags Issue : mkvmerge v8.8.0 ('Wind at my back') 64bit 2018-04-13 13:07:48 / mkvmerge v8.8.0 ('Wind at my back') 64bit 2018-04-13 13:07:48 / UTC 2018-04-06T19:32:41Z
FromStats_BitRate : 49
FromStats_Duration : 02:36:34.719000000
FromStats_FrameCount : 1804
FromStats_StreamSize : 58048

Menu
00:00:00.000 : :The Riddle House
00:03:46.560 : :The Hungrian Horntail
00:06:09.369 : :Sirius Conversation
00:09:50.090 : :Rita Keeter
00:13:45.325 : :Let Events Unfold
00:19:14.987 : :The Four Champions
00:23:09.388 : :The Unforgivable Curses
00:29:01.573 : :The Goblet of Fire
00:36:26.685 : :The Triwizard Tournament
00:39:05.009 : :The Dark Mark
00:41:32.490 : :The Quidditch World Cup
00:45:36.400 : :The Portkey
00:49:07.778 : :Best Foot Forward
00:54:06.243 : :The First Task
01:02:46.596 : :Tranforming Malfoy
01:09:12.982 : :An Unexpected Challenge
01:14:43.980 : :The Yule Ball
01:22:27.609 : :The Egg's Clue
01:30:34.763 : :The Second Task
01:39:29.297 : :Never Whole Again
01:42:42.490 : :The Pensieve
01:47:22.937 : :Dreams and Suspicions
01:50:19.279 : :The Third Task
01:58:54.461 : :Flesh, Blood and Bone
02:02:02.315 : :The Death Eaters
02:06:36.589 : :Priori Incantatem
02:10:01.627 : :Veritaserum
02:17:38.083 : :Parting Ways
02:23:48.620 : :End Credits





Harry Potter and the Goblet of Fire (2005)


Harry Potter and the Goblet of Fire (2005)


Harry Potter and the Goblet of Fire (2005)


Harry Potter and the Goblet of Fire (2005)


Harry Potter and the Goblet of Fire (2005)