Harry Potter and the Chamber of Secrets (2002)

Posted By: Tavaz
1080p (FullHD) / BDRip IMDb
Harry Potter and the Chamber of Secrets (2002)

Harry Potter and the Chamber of Secrets (2002)
BDRip | MKV | 1920x1080 | English | H264 @ 5760 kbps | AC-3 @ 448 kbps | 2 h 54 min | 7.56 GiB
Subtitles: English
Genre: Adventure, Fantasy, Family

Ignoring threats to his life, Harry returns to Hogwarts to investigate – aided by Ron and Hermione – a mysterious series of attacks.

f32cd8adbfb54c8dbd0aa4618d9dc516.mkv (7.6 GB)



General
Unique ID : 86498143258390438781195971676554831855 (0x4112EFB973B6F1BFCC5DCBE6FEEAA7EF)
Complete name : ./f32cd8adbfb54c8dbd0aa4618d9dc516.mkv
Format : Matroska
Format version : Version 4 / Version 2
File size : 7.56 GiB
Duration : 2 h 54 min
Overall bit rate : 6 209 kb/s
Movie name : Harry.Potter.and.the.Chamber.of.Secrets.2002.Extended.Edition.1080p.BluRay.x264-nikt0
Encoded date : UTC 2018-04-14 11:09:03 / UTC 2018-04-05T08:27:12Z
Writing application : mkvmerge v8.8.0 ('Wind at my back') 64bit
Writing library : libebml v1.3.3 + libmatroska v1.4.4 / Lavf57.7.2

Video
ID : 1
Format : AVC
Format/Info : Advanced Video Codec
Format profile : [email protected]
Format settings : CABAC / 4 Ref Frames
Format settings, CABAC : Yes
Format settings, RefFrames : 4 frames
Codec ID : V_MPEG4/ISO/AVC
Duration : 2 h 54 min
Bit rate : 5 760 kb/s
Width : 1 920 pixels
Height : 1 080 pixels
Display aspect ratio : 16:9
Frame rate mode : Constant
Frame rate : 23.976 (24000/1001) FPS
Color space : YUV
Chroma subsampling : 4:2:0
Bit depth : 8 bits
Scan type : Progressive
Bits/(Pixel*Frame) : 0.116
Stream size : 6.87 GiB (91%)
Writing library : x264 core 148 r2643 5c65704
Encoding settings : cabac=1 / ref=4 / deblock=1:-3:-3 / analyse=0x3:0x133 / me=umh / subme=9 / psy=1 / psy_rd=1.10:0.25 / mixed_ref=1 / me_range=32 / chroma_me=1 / trellis=2 / 8x8dct=1 / cqm=0 / deadzone=6,6 / fast_pskip=1 / chroma_qp_offset=-4 / threads=12 / lookahead_threads=1 / sliced_threads=0 / nr=0 / decimate=1 / interlaced=0 / bluray_compat=0 / constrained_intra=0 / bframes=6 / b_pyramid=2 / b_adapt=2 / b_bias=0 / direct=3 / weightb=1 / open_gop=0 / weightp=2 / keyint=240 / keyint_min=24 / scenecut=40 / intra_refresh=0 / rc_lookahead=40 / rc=2pass / mbtree=1 / bitrate=5760 / ratetol=1.0 / qcomp=0.60 / qpmin=0 / qpmax=69 / qpstep=4 / cplxblur=20.0 / qblur=0.5 / vbv_maxrate=20000 / vbv_bufsize=25000 / nal_hrd=none / filler=0 / ip_ratio=1.40 / aq=1:1.00
Language : English
Default : Yes
Forced : No
Color range : Limited
Color primaries : BT.709
Transfer characteristics : BT.709
Matrix coefficients : BT.709
Statistics Tags Issue : mkvmerge v8.8.0 ('Wind at my back') 64bit 2018-04-14 11:09:03 / mkvmerge v8.8.0 ('Wind at my back') 64bit 2018-04-14 11:09:03 / UTC 2018-04-05T08:27:12Z
FromStats_BitRate : 5759363
FromStats_Duration : 02:54:24.037000000
FromStats_FrameCount : 250886
FromStats_StreamSize : 7533274508

Audio
ID : 2
Format : AC-3
Format/Info : Audio Coding 3
Format settings, Endianness : Big
Codec ID : A_AC3
Duration : 2 h 54 min
Bit rate mode : Constant
Bit rate : 448 kb/s
Channel(s) : 6 channels
Channel positions : Front: L C R, Side: L R, LFE
Sampling rate : 48.0 kHz
Frame rate : 31.250 FPS (1536 SPF)
Bit depth : 16 bits
Compression mode : Lossy
Delay relative to video : -5 ms
Stream size : 559 MiB (7%)
Title : Surround
Language : English
Service kind : Complete Main
Default : Yes
Forced : No
Statistics Tags Issue : mkvmerge v8.8.0 ('Wind at my back') 64bit 2018-04-14 11:09:03 / mkvmerge v8.8.0 ('Wind at my back') 64bit 2018-04-14 11:09:03 / UTC 2018-04-05T08:27:12Z
FromStats_BitRate : 448000
FromStats_Duration : 02:54:24.000000000
FromStats_FrameCount : 327000
FromStats_StreamSize : 585984000

Text
ID : 3
Format : UTF-8
Codec ID : S_TEXT/UTF8
Codec ID/Info : UTF-8 Plain Text
Title : SDH
Language : English
Default : Yes
Forced : No
Statistics Tags Issue : mkvmerge v8.8.0 ('Wind at my back') 64bit 2018-04-14 11:09:03 / mkvmerge v8.8.0 ('Wind at my back') 64bit 2018-04-14 11:09:03 / UTC 2018-04-05T08:27:12Z
FromStats_BitRate : 50
FromStats_Duration : 02:53:10.505000000
FromStats_FrameCount : 1746
FromStats_StreamSize : 65789

Menu
00:00:00.000 : :In a Cage
00:03:00.972 : :Dobby's Warning
00:08:37.017 : :Car Rescue
00:11:31.024 : :The Burrow
00:14:48.554 : :To Diagon Aley
00:21:20.070 : :Flourish and Blotts
00:25:38.454 : :Flying to Hogwarts
00:29:31.520 : :Whomping Willow
00:32:32.242 : :Not Expelled…Today
00:35:25.332 : :Mandrakes; Ron's Howler
00:39:50.805 : :Gilderoy Lockhart
00:43:52.547 : :Mudbloods and Murmurs
00:48:40.126 : :Writing on the Wall
00:54:08.287 : :About the Chamber
00:58:08.276 : :Rogue Bludger
01:04:08.595 : :No Longer Safe
01:09:25.495 : :Dueling Club
01:14:12.740 : :A Parselmouth
01:20:33.078 : :Nothing to Tell
01:25:59.321 : :Polyjuice Potion
01:31:56.886 : :Harry and Ron Transformed
01:36:22.485 : :The Diary
01:41:54.984 : :Tom Riddle
01:46:02.815 : :Petrified
01:50:33.377 : :Cornelius Fudge
01:55:39.558 : :Aragog
02:00:30.473 : :Spider Attack
02:04:36.844 : :Missing
02:08:55.061 : :Chamber of Secrets
02:14:22.137 : :Backfire
02:17:38.625 : :Heir of Slytherin
02:23:01.156 : :The Basilisk
02:28:01.289 : :Healing Powers
02:31:34.794 : :Out of the Hat
02:34:49.071 : :Dobby's Reward
02:40:04.303 : :Welcome Back
02:45:11.944 : :End Credits





Harry Potter and the Chamber of Secrets (2002)


Harry Potter and the Chamber of Secrets (2002)


Harry Potter and the Chamber of Secrets (2002)


Harry Potter and the Chamber of Secrets (2002)


Harry Potter and the Chamber of Secrets (2002)