Leslie Pintchik - So Glad To Be Here (2004) MCH SACD ISO + Hi-Res FLAC

Posted By: HDAtall
Leslie Pintchik - So Glad To Be Here (2004) MCH SACD ISO + Hi-Res FLAC

Leslie Pintchik - So Glad To Be Here (2004)
SACD Rip | SACD ISO | DST64 2.0 & 5.0 > 1-bit/2.8224 MHz | 58:52 minutes | Front/Rear Covers | 3,2 GB
or FLAC 2.0 Stereo (converted with foobar2000 to tracks) 24bit/96 kHz | Front/Rear Covers | 1,29 GB

Not standard piano trio, this group features unique percussion with lyrical bass and piano arrangements of originals and standards. Pianist Leslie Pintchik and bassist Scott Hardy have a musical partnership that spans two decades, and together they have built a library of rich original material. On So Glad to Be Here, Leslie and Scott are joined by percussionist Satoshi Takeishi, whose highly unusual kit (which includes hand drums, bells, cymbals, etc.) adds a dramatic array of colors to the music. The Music-Warmth, humor and mystery flavor this mix of original compositions and jazz standards, in a recording that features rich group interplay and lean textures.

Leslie Pintchik initially was working toward a career as an English professor, but her discovery of jazz motivated her to become a pianist and composer. This release marks her debut as a leader, joined by bassist Scott Hardy (who is her husband) and drummer Satoshi Takeishi. The session begins with two standards, but with a twist. "All the Things You Are" almost seems in danger of overexposure, but the intricate Latin-flavored arrangement brings out new ideas from within this old chestnut, with superb playing by all three musicians. Irving Berlin's "You Keep Coming Back Like a Song" is somewhat more obscure. It comes from the mid-'40s film Blue Skies, originally sung by Bing Crosby. Pintchik's delicate, swinging treatment, with Hardy's pulsing bass and Takeishi's off-center brushwork may very well direct other players to this long-hidden gem. She perfectly captures the playfulness of Thelonious Monk's "We See," delivering a jaunty interpretation. The remainder of the date showcases strong original compositions. Hardy contributed the breezy samba "Scamba." Pinthcik's "Hopperesque" is rather exotic, especially due to Takeishi's fascinating percussion. Her "Let's Get Lucky" is a Brazilian-flavored gem that alternates between a laid-back feeling and a driving intensity. The squealing of cymbals and ominous percussion introduce "Mortal," though the mood turns bittersweet as the pianist finally makes her entrance, almost suggesting powerful emotion coming forth after the sudden end of a romance. Takeishi's percussion seems to add a bit of turmoil into this powerful work. Leslie Pintchik's brilliant debut aptly displays her enormous gifts as a composer, arranger and pianist.

Tracklist:

01. All the Things You Are
02. You Keep Coming Back Like a Song
03. Scamba
04. Hopperesque
05. Let's Get Lucky
06. Happy Dog
07. Mortal
08. Terse Tune
09. Luscious
10. Something Lost
11. We See

Personnel
Leslie Pintchik - Piano
Scott Hardy - Bass
Satoshi Takeishi - Drums & Percussion

foobar2000 1.3.19 / Dynamic Range Meter 1.1.1

––––––––––––––––––––––––––––––––––––––––
Analyzed: Leslie Pintchik Trio / So Glad To Be Here
––––––––––––––––––––––––––––––––––––––––

DR Peak RMS Duration Track
––––––––––––––––––––––––––––––––––––––––
DR14 -4.80 dB -27.99 dB 6:11 01-All the Things You Are
DR15 -10.08 dB -31.77 dB 4:35 02-You Keep Coming Back Like a Song
DR14 -6.13 dB -27.91 dB 5:55 03-Scamba
DR16 -5.95 dB -29.65 dB 5:39 04-Hopperesque
DR15 -3.93 dB -24.98 dB 4:40 05-Let's Get Lucky
DR16 -5.34 dB -29.54 dB 5:08 06-Happy Dog
DR16 -5.03 dB -30.83 dB 7:15 07-Mortal
DR14 -4.99 dB -24.88 dB 5:29 08-Terse Tune
DR14 -7.99 dB -29.88 dB 4:48 09-Luscious
DR15 -10.87 dB -32.37 dB 5:02 10-Something Lost
DR16 -3.79 dB -27.06 dB 4:07 11-We See
––––––––––––––––––––––––––––––––––––––––

Number of tracks: 11
Official DR value: DR15

Samplerate: 2822400 Hz / PCM Samplerate: 176400 Hz
Channels: 5
Bits per sample: 1
Bitrate: 14112 kbps
Codec: DST64
================================================================================

––––––––––––––––––––––––––––––––––––––––
Analyzed: Leslie Pintchik Trio / So Glad To Be Here
––––––––––––––––––––––––––––––––––––––––

DR Peak RMS Duration Track
––––––––––––––––––––––––––––––––––––––––
DR13 -5.26 dB -23.23 dB 6:11 01-All the Things You Are
DR13 -7.49 dB -26.00 dB 4:36 02-You Keep Coming Back Like a Song
DR13 -7.14 dB -23.79 dB 5:56 03-Scamba
DR14 -6.44 dB -25.15 dB 5:40 04-Hopperesque
DR12 -6.44 dB -21.20 dB 4:39 05-Let's Get Lucky
DR13 -6.06 dB -23.57 dB 5:08 06-Happy Dog
DR15 -6.31 dB -27.61 dB 7:15 07-Mortal
DR12 -5.99 dB -21.49 dB 5:28 08-Terse Tune
DR14 -7.05 dB -24.92 dB 4:49 09-Luscious
DR15 -8.49 dB -27.48 dB 5:03 10-Something Lost
DR13 -8.21 dB -23.57 dB 4:07 11-We See
––––––––––––––––––––––––––––––––––––––––

Number of tracks: 11
Official DR value: DR13

Samplerate: 2822400 Hz / PCM Samplerate: 176400 Hz
Channels: 2
Bits per sample: 1
Bitrate: 5645 kbps
Codec: DST64


Thanks to jazzyman!
Uncompressed SACD ISO size > 3,04 GB

Leslie Pintchik - Quartets
>